*Gfxcool - Share Is All Around - Vector - Software - Game - After Effect - Movie - Photoshop - Videohive - Tutorials - B-Xtreme - The Movement

**

B-Xtreme - The Movement

Sponsored Direct Downloads
New Download Links
Speed
 kbps
 kbps
 kbps

B-Xtreme - The Movement

B-Xtreme - The Movement
DVDRip | AVI / XviD, 5960 kb/s | 720x480 | 00:48:27 | English: MP3, 192 kb/s (2 ch) | 2.09 GB

Make-Tricks C.E.O. Founder of B-Xtreme teaches you the basic calistienics movement while entertaining you with videos of spectacular exercises to build a B-Xtreme body.
MediaInfo:
Format : AVI
Format/Info : Audio Video Interleave
Format profile : OpenDML
File size : 2.09 GiB
Duration : 48mn 26s
Overall bit rate : 6 166 Kbps
Writing application : Lavf52.61.0

Video
ID : 0
Format : MPEG-4 Visual
Format profile : Simple@L3
Format settings, BVOP : No
Format settings, QPel : No
Format settings, GMC : No warppoints
Format settings, Matrix : Default (H.263)
Codec ID : XVID
Codec ID/Hint : XviD
Duration : 48mn 26s
Bit rate : 5 960 Kbps
Width : 720 pixels
Height : 480 pixels
Display aspect ratio : 4:3
Frame rate : 29.970 fps
Standard : NTSC
Color space : YUV
Chroma subsampling : 4:2:0
Bit depth : 8 bits
Scan type : Progressive
Compression mode : Lossy
Bits/(Pixel*Frame) : 0.575
Stream size : 2.02 GiB (97%)
Writing library : XviD 1.2.1 (UTC 2008-12-04)

Audio
ID : 1
Format : MPEG Audio
Format version : Version 1
Format profile : Layer 3
Mode : Joint stereo
Mode extension : MS Stereo
Codec ID : 55
Codec ID/Hint : MP3
Duration : 48mn 26s
Bit rate mode : Constant
Bit rate : 192 Kbps
Channel(s) : 2 channels
Sampling rate : 48.0 KHz
Compression mode : Lossy
Stream size : 66.5 MiB (3%)
Alignment : Aligned on interleaves
Interleave, duration : 24 ms (0.72 video frame)
Interleave, preload duration : 48 ms

B-Xtreme - The Movement

B-Xtreme - The Movement

B-Xtreme - The Movement

B-Xtreme - The Movement



B-Xtreme - The Movement is available on a new fast direct download service with over 2,210,000 Files to choose from.Download anything with more then 1000+ Kb/s downloading speed.Signup process takes just 10 sec to go.Signup today and enjoy the speed !
If you need to buy a premium account to help download of the fast? We recommend that you purchase Account Rapidgator follow the link below to ensure correct service:

By this way, You will help us very much to maintain our server and keep bestgfx alive and grown
Go Back
Tags: Xtreme, Movement
(Votes: 1)
Dear visitor, you went to the site as unregistered user.
We encourage you to Register or enter the site under your name.

Comment

Comments

Information
Members of Guests cannot leave comments.